  0
SECTION
  2
HEADER
  9
$ACADVER
  1
AC1014
  9
$ACADMAINTVER
 70
     9
  9
$DWGCODEPAGE
  3
ANSI_1252
  9
$INSBASE
 10
0.0
 20
0.0
 30
0.0
  9
$EXTMIN
 10
3.291857947191751
 20
3.76289320417178
 30
0.0
  9
$EXTMAX
 10
9.333173251672956
 20
7.633222883509631
 30
0.0
  9
$LIMMIN
 10
0.0
 20
0.0
  9
$LIMMAX
 10
12.0
 20
9.0
  9
$ORTHOMODE
 70
     0
  9
$REGENMODE
 70
     1
  9
$FILLMODE
 70
     1
  9
$QTEXTMODE
 70
     0
  9
$MIRRTEXT
 70
     1
  9
$DRAGMODE
 70
     2
  9
$LTSCALE
 40
1.0
  9
$OSMODE
 70
     0
  9
$ATTMODE
 70
     1
  9
$TEXTSIZE
 40
0.2
  9
$TRACEWID
 40
0.05
  9
$TEXTSTYLE
  7
STANDARD
  9
$CLAYER
  8
0
  9
$CELTYPE
  6
BYLAYER
  9
$CECOLOR
 62
   256
  9
$CELTSCALE
 40
1.0
  9
$DELOBJ
 70
     1
  9
$DISPSILH
 70
     0
  9
$DIMSCALE
 40
1.0
  9
$DIMASZ
 40
0.18
  9
$DIMEXO
 40
0.0625
  9
$DIMDLI
 40
0.38
  9
$DIMRND
 40
0.0
  9
$DIMDLE
 40
0.0
  9
$DIMEXE
 40
0.18
  9
$DIMTP
 40
0.0
  9
$DIMTM
 40
0.0
  9
$DIMTXT
 40
0.18
  9
$DIMCEN
 40
0.09
  9
$DIMTSZ
 40
0.0
  9
$DIMTOL
 70
     0
  9
$DIMLIM
 70
     0
  9
$DIMTIH
 70
     1
  9
$DIMTOH
 70
     1
  9
$DIMSE1
 70
     0
  9
$DIMSE2
 70
     0
  9
$DIMTAD
 70
     0
  9
$DIMZIN
 70
     0
  9
$DIMBLK
  1

  9
$DIMASO
 70
     1
  9
$DIMSHO
 70
     1
  9
$DIMPOST
  1

  9
$DIMAPOST
  1

  9
$DIMALT
 70
     0
  9
$DIMALTD
 70
     2
  9
$DIMALTF
 40
25.4
  9
$DIMLFAC
 40
1.0
  9
$DIMTOFL
 70
     0
  9
$DIMTVP
 40
0.0
  9
$DIMTIX
 70
     0
  9
$DIMSOXD
 70
     0
  9
$DIMSAH
 70
     0
  9
$DIMBLK1
  1

  9
$DIMBLK2
  1

  9
$DIMSTYLE
  2
STANDARD
  9
$DIMCLRD
 70
     0
  9
$DIMCLRE
 70
     0
  9
$DIMCLRT
 70
     0
  9
$DIMTFAC
 40
1.0
  9
$DIMGAP
 40
0.09
  9
$DIMJUST
 70
     0
  9
$DIMSD1
 70
     0
  9
$DIMSD2
 70
     0
  9
$DIMTOLJ
 70
     1
  9
$DIMTZIN
 70
     0
  9
$DIMALTZ
 70
     0
  9
$DIMALTTZ
 70
     0
  9
$DIMFIT
 70
     3
  9
$DIMUPT
 70
     0
  9
$DIMUNIT
 70
     2
  9
$DIMDEC
 70
     2
  9
$DIMTDEC
 70
     2
  9
$DIMALTU
 70
     2
  9
$DIMALTTD
 70
     2
  9
$DIMTXSTY
  7
STANDARD
  9
$DIMAUNIT
 70
     0
  9
$LUNITS
 70
     2
  9
$LUPREC
 70
     4
  9
$SKETCHINC
 40
0.1
  9
$FILLETRAD
 40
0.5
  9
$AUNITS
 70
     0
  9
$AUPREC
 70
     0
  9
$MENU
  1
.
  9
$ELEVATION
 40
0.0
  9
$PELEVATION
 40
0.0
  9
$THICKNESS
 40
0.0
  9
$LIMCHECK
 70
     0
  9
$BLIPMODE
 70
     0
  9
$CHAMFERA
 40
0.5
  9
$CHAMFERB
 40
0.5
  9
$CHAMFERC
 40
1.0
  9
$CHAMFERD
 40
0.0
  9
$SKPOLY
 70
     0
  9
$TDCREATE
 40
2452178.460665046
  9
$TDUPDATE
 40
2452646.423863888
  9
$TDINDWG
 40
0.0031251157
  9
$TDUSRTIMER
 40
0.0031251157
  9
$USRTIMER
 70
     1
  9
$ANGBASE
 50
0.0
  9
$ANGDIR
 70
     0
  9
$PDMODE
 70
     0
  9
$PDSIZE
 40
0.0
  9
$PLINEWID
 40
0.0
  9
$COORDS
 70
     1
  9
$SPLFRAME
 70
     0
  9
$SPLINETYPE
 70
     6
  9
$SPLINESEGS
 70
     8
  9
$ATTDIA
 70
     1
  9
$ATTREQ
 70
     1
  9
$HANDLING
 70
-16383
  9
$HANDSEED
  5
354
  9
$SURFTAB1
 70
     6
  9
$SURFTAB2
 70
     6
  9
$SURFTYPE
 70
     6
  9
$SURFU
 70
     6
  9
$SURFV
 70
     6
  9
$UCSNAME
  2

  9
$UCSORG
 10
0.0
 20
0.0
 30
0.0
  9
$UCSXDIR
 10
1.0
 20
0.0
 30
0.0
  9
$UCSYDIR
 10
0.0
 20
1.0
 30
0.0
  9
$PUCSNAME
  2

  9
$PUCSORG
 10
0.0
 20
0.0
 30
0.0
  9
$PUCSXDIR
 10
1.0
 20
0.0
 30
0.0
  9
$PUCSYDIR
 10
0.0
 20
1.0
 30
0.0
  9
$USERI1
 70
     0
  9
$USERI2
 70
     0
  9
$USERI3
 70
     0
  9
$USERI4
 70
     0
  9
$USERI5
 70
     0
  9
$USERR1
 40
0.0
  9
$USERR2
 40
0.0
  9
$USERR3
 40
0.0
  9
$USERR4
 40
0.0
  9
$USERR5
 40
0.0
  9
$WORLDVIEW
 70
     1
  9
$SHADEDGE
 70
     3
  9
$SHADEDIF
 70
    70
  9
$TILEMODE
 70
     1
  9
$MAXACTVP
 70
    64
  9
$PINSBASE
 10
0.0
 20
0.0
 30
0.0
  9
$PLIMCHECK
 70
     0
  9
$PEXTMIN
 10
1.000000000000000E+20
 20
1.000000000000000E+20
 30
1.000000000000000E+20
  9
$PEXTMAX
 10
-1.000000000000000E+20
 20
-1.000000000000000E+20
 30
-1.000000000000000E+20
  9
$PLIMMIN
 10
0.0
 20
0.0
  9
$PLIMMAX
 10
12.0
 20
9.0
  9
$UNITMODE
 70
     0
  9
$VISRETAIN
 70
     1
  9
$PLINEGEN
 70
     0
  9
$PSLTSCALE
 70
     1
  9
$TREEDEPTH
 70
  3020
  9
$PICKSTYLE
 70
     1
  9
$CMLSTYLE
  2
STANDARD
  9
$CMLJUST
 70
     0
  9
$CMLSCALE
 40
1.0
  9
$PROXYGRAPHICS
 70
     1
  9
$MEASUREMENT
 70
     0
  0
ENDSEC
  0
SECTION
  2
CLASSES
  0
CLASS
  1
ACDBDICTIONARYWDFLT
  2
AcDbDictionaryWithDefault
  3
AutoCAD 2000
 90
        0
280
     0
281
     0
  0
CLASS
  1
ACDBPLACEHOLDER
  2
AcDbPlaceHolder
  3
AutoCAD 2000
 90
        0
280
     0
281
     0
  0
CLASS
  1
LAYOUT
  2
AcDbLayout
  3
AutoCAD 2000
 90
        0
280
     0
281
     0
  0
CLASS
  1
LONG_TRANSACTION
  2
AcDbLongTransaction
  3
AutoCAD 2000
 90
        0
280
     0
281
     0
  0
CLASS
  1
LWPOLYLINE
  2
AcDbPolyline
  3
AutoCAD 2000
 90
        0
280
     0
281
     1
  0
CLASS
  1
HATCH
  2
AcDbHatch
  3
AutoCAD 2000
 90
        0
280
     0
281
     1
  0
CLASS
  1
XRECORD
  2
AcDbXrecord
  3
AutoCAD 2000
 90
        0
280
     0
281
     0
  0
ENDSEC
  0
SECTION
  2
TABLES
  0
TABLE
  2
VPORT
  5
8
330
0
100
AcDbSymbolTable
 70
     3
  0
VPORT
  5
32D
330
8
100
AcDbSymbolTableRecord
100
AcDbViewportTableRecord
  2
*ACTIVE
 70
     0
 10
0.0
 20
0.0
 11
1.0
 21
1.0
 12
6.581321473842802
 22
5.283088231257247
 13
0.0
 23
0.0
 14
0.5
 24
0.5
 15
0.5
 25
0.5
 16
0.0
 26
0.0
 36
1.0
 17
0.0
 27
0.0
 37
0.0
 40
8.99999999580908
 41
1.462515883100381
 42
50.0
 43
0.0
 44
0.0
 50
0.0
 51
0.0
 71
     0
 72
   100
 73
     1
 74
     3
 75
     0
 76
     0
 77
     0
 78
     0
  0
ENDTAB
  0
TABLE
  2
LTYPE
  5
5
330
0
100
AcDbSymbolTable
 70
     1
  0
LTYPE
  5
14
330
5
100
AcDbSymbolTableRecord
100
AcDbLinetypeTableRecord
  2
BYBLOCK
 70
     0
  3

 72
    65
 73
     0
 40
0.0
  0
LTYPE
  5
15
330
5
100
AcDbSymbolTableRecord
100
AcDbLinetypeTableRecord
  2
BYLAYER
 70
     0
  3

 72
    65
 73
     0
 40
0.0
  0
LTYPE
  5
16
330
5
100
AcDbSymbolTableRecord
100
AcDbLinetypeTableRecord
  2
CONTINUOUS
 70
     0
  3
Solid line
 72
    65
 73
     0
 40
0.0
  0
ENDTAB
  0
TABLE
  2
LAYER
  5
2
330
0
100
AcDbSymbolTable
 70
     4
  0
LAYER
  5
10
330
2
100
AcDbSymbolTableRecord
100
AcDbLayerTableRecord
  2
0
 70
     0
 62
     7
  6
CONTINUOUS
  0
LAYER
  5
34
330
2
100
AcDbSymbolTableRecord
100
AcDbLayerTableRecord
  2
L
 70
     0
 62
     7
  6
CONTINUOUS
  0
LAYER
  5
45
330
2
100
AcDbSymbolTableRecord
100
AcDbLayerTableRecord
  2
DEFPOINTS
 70
     0
 62
     7
  6
CONTINUOUS
  0
LAYER
  5
88
330
2
100
AcDbSymbolTableRecord
100
AcDbLayerTableRecord
  2
TX
 70
     0
 62
   150
  6
CONTINUOUS
  0
ENDTAB
  0
TABLE
  2
STYLE
  5
3
330
0
100
AcDbSymbolTable
 70
     3
  0
STYLE
  5
11
330
3
100
AcDbSymbolTableRecord
100
AcDbTextStyleTableRecord
  2
STANDARD
 70
     0
 40
0.0
 41
1.0
 50
0.0
 71
     0
 42
0.2
  3
txt
  4

  0
STYLE
  5
35
330
3
100
AcDbSymbolTableRecord
100
AcDbTextStyleTableRecord
  2
REG
 70
     0
 40
0.0
 41
1.0
 50
0.0
 71
     0
 42
0.09375
  3
E:\R13\com\fonts\ARCHITXT.SHX
  4

  0
STYLE
  5
36
330
3
100
AcDbSymbolTableRecord
100
AcDbTextStyleTableRecord
  2
DIMTXT
 70
     0
 40
0.0
 41
1.0
 50
0.0
 71
     0
 42
1.125
  3
archt.shx
  4

  0
ENDTAB
  0
TABLE
  2
VIEW
  5
6
330
0
100
AcDbSymbolTable
 70
     0
  0
ENDTAB
  0
TABLE
  2
UCS
  5
7
330
0
100
AcDbSymbolTable
 70
     0
  0
ENDTAB
  0
TABLE
  2
APPID
  5
9
330
0
100
AcDbSymbolTable
 70
     1
  0
APPID
  5
12
330
9
100
AcDbSymbolTableRecord
100
AcDbRegAppTableRecord
  2
ACAD
 70
     0
  0
ENDTAB
  0
TABLE
  2
DIMSTYLE
  5
A
330
0
100
AcDbSymbolTable
 70
     6
  0
DIMSTYLE
105
27
102
{ACAD_REACTORS
330
C1
330
CF
102
}
330
A
100
AcDbSymbolTableRecord
100
AcDbDimStyleTableRecord
  2
STANDARD
 70
     0
  3

  4

  5

  6

  7

 40
1.0
 41
0.18
 42
0.0625
 43
0.38
 44
0.18
 45
0.0
 46
0.0
 47
0.0
 48
0.0
140
0.18
141
0.09
142
0.0
143
25.4
144
1.0
145
0.0
146
1.0
147
0.09
 71
     0
 72
     0
 73
     1
 74
     1
 75
     0
 76
     0
 77
     0
 78
     0
170
     0
171
     2
172
     0
173
     0
174
     0
175
     0
176
     0
177
     0
178
     0
270
     2
271
     2
272
     2
273
     2
274
     2
340
11
275
     0
280
     0
281
     0
282
     0
283
     1
284
     0
285
     0
286
     0
287
     3
288
     0
  0
DIMSTYLE
105
37
330
A
100
AcDbSymbolTableRecord
100
AcDbDimStyleTableRecord
  2
1
 70
     0
  3

  4

  5

  6

  7

 40
1.0
 41
1.125
 42
0.5
 43
0.375
 44
1.19921875
 45
0.0
 46
0.5
 47
0.0
 48
0.0
140
1.125
141
0.125
142
0.0
143
25.4
144
1.0
145
0.0
146
0.8
147
0.5625
 71
     0
 72
     0
 73
     0
 74
     0
 75
     0
 76
     0
 77
     1
 78
     3
170
     0
171
     2
172
     1
173
     0
174
     1
175
     0
176
   133
177
   133
178
   150
270
     2
271
     3
272
     3
273
     2
274
     2
340
36
275
     0
280
     0
281
     0
282
     0
283
     1
284
     0
285
     0
286
     0
287
     4
288
     0
  0
DIMSTYLE
105
38
330
A
100
AcDbSymbolTableRecord
100
AcDbDimStyleTableRecord
  2
1$2
 70
     0
  3

  4

  5
DOTSMALL
  6

  7

 40
1.0
 41
1.5
 42
0.5
 43
0.375
 44
1.19921875
 45
0.0
 46
0.5
 47
0.0
 48
0.0
140
0.75
141
0.125
142
0.0
143
25.4
144
1.0
145
0.0
146
0.8
147
0.5625
 71
     0
 72
     0
 73
     0
 74
     0
 75
     0
 76
     0
 77
     1
 78
     3
170
     0
171
     2
172
     1
173
     0
174
     1
175
     0
176
   133
177
   133
178
   150
270
     2
271
     3
272
     3
273
     2
274
     2
340
36
275
     0
280
     0
281
     0
282
     0
283
     1
284
     0
285
     0
286
     0
287
     4
288
     0
  0
DIMSTYLE
105
39
330
A
100
AcDbSymbolTableRecord
100
AcDbDimStyleTableRecord
  2
1$4
 70
     0
  3

  4

  5

  6

  7
DOTSMALL
 40
1.0
 41
1.5
 42
0.5
 43
0.375
 44
1.19921875
 45
0.0
 46
0.5
 47
0.0
 48
0.0
140
0.75
141
0.125
142
0.0
143
25.4
144
1.0
145
0.0
146
0.8
147
0.5625
 71
     0
 72
     0
 73
     0
 74
     0
 75
     0
 76
     0
 77
     1
 78
     3
170
     0
171
     2
172
     1
173
     1
174
     1
175
     0
176
   133
177
   133
178
   150
270
     2
271
     3
272
     3
273
     2
274
     2
340
36
275
     0
280
     0
281
     0
282
     0
283
     1
284
     0
285
     0
286
     0
287
     4
288
     0
  0
DIMSTYLE
105
3A
330
A
100
AcDbSymbolTableRecord
100
AcDbDimStyleTableRecord
  2
1$3
 70
     0
  3

  4

  5
DOTSMALL
  6

  7

 40
1.0
 41
1.5
 42
0.5
 43
0.375
 44
1.19921875
 45
0.0
 46
0.5
 47
0.0
 48
0.0
140
0.75
141
0.125
142
0.0
143
25.4
144
1.0
145
0.0
146
0.8
147
0.5625
 71
     0
 72
     0
 73
     0
 74
     0
 75
     0
 76
     0
 77
     1
 78
     3
170
     0
171
     2
172
     1
173
     0
174
     1
175
     0
176
   133
177
   133
178
   150
270
     2
271
     3
272
     3
273
     2
274
     2
340
36
275
     0
280
     0
281
     0
282
     0
283
     1
284
     0
285
     0
286
     0
287
     4
288
     0
  0
DIMSTYLE
105
3B
330
A
100
AcDbSymbolTableRecord
100
AcDbDimStyleTableRecord
  2
1$7
 70
     0
  3

  4

  5

  6

  7

 40
1.0
 41
1.0
 42
0.5
 43
0.375
 44
1.19921875
 45
0.0
 46
0.5
 47
0.0
 48
0.0
140
0.75
141
0.125
142
0.0
143
25.4
144
1.0
145
0.0
146
0.8
147
0.5625
 71
     0
 72
     0
 73
     0
 74
     0
 75
     0
 76
     0
 77
     1
 78
     3
170
     0
171
     2
172
     1
173
     0
174
     1
175
     0
176
   133
177
   133
178
   150
270
     2
271
     3
272
     3
273
     2
274
     2
340
36
275
     0
280
     0
281
     0
282
     0
283
     1
284
     0
285
     0
286
     0
287
     4
288
     0
  0
ENDTAB
  0
TABLE
  2
BLOCK_RECORD
  5
1
330
0
100
AcDbSymbolTable
 70
     5
  0
BLOCK_RECORD
  5
1F
102
{ACAD_XDICTIONARY
360
350
102
}
330
1
100
AcDbSymbolTableRecord
100
AcDbBlockTableRecord
  2
*MODEL_SPACE
  0
BLOCK_RECORD
  5
1B
102
{ACAD_XDICTIONARY
360
34E
102
}
330
1
100
AcDbSymbolTableRecord
100
AcDbBlockTableRecord
  2
*PAPER_SPACE
  0
BLOCK_RECORD
  5
2B
330
1
100
AcDbSymbolTableRecord
100
AcDbBlockTableRecord
  2
_DOT
  0
BLOCK_RECORD
  5
30
330
1
100
AcDbSymbolTableRecord
100
AcDbBlockTableRecord
  2
_DOTSMALL
  0
BLOCK_RECORD
  5
C2
330
1
100
AcDbSymbolTableRecord
100
AcDbBlockTableRecord
  2
*D3
  0
BLOCK_RECORD
  5
D0
330
1
100
AcDbSymbolTableRecord
100
AcDbBlockTableRecord
  2
*D4
  0
ENDTAB
  0
ENDSEC
  0
SECTION
  2
BLOCKS
  0
BLOCK
  5
20
330
1F
100
AcDbEntity
  8
0
100
AcDbBlockBegin
  2
*MODEL_SPACE
 70
     0
 10
0.0
 20
0.0
 30
0.0
  3
*MODEL_SPACE
  1

  0
ENDBLK
  5
21
330
1F
100
AcDbEntity
  8
0
100
AcDbBlockEnd
  0
BLOCK
  5
1C
330
1B
100
AcDbEntity
 67
     1
  8
0
100
AcDbBlockBegin
  2
*PAPER_SPACE
 70
     0
 10
0.0
 20
0.0
 30
0.0
  3
*PAPER_SPACE
  1

  0
ENDBLK
  5
1D
330
1B
100
AcDbEntity
 67
     1
  8
0
100
AcDbBlockEnd
  0
BLOCK
  5
2E
330
2B
100
AcDbEntity
  8
0
100
AcDbBlockBegin
  2
_DOT
 70
     0
 10
0.0
 20
0.0
 30
0.0
  3
_DOT
  1

  0
LWPOLYLINE
  5
2C
330
2B
100
AcDbEntity
  8
L
 62
     0
100
AcDbPolyline
 90
        2
 70
     1
 43
0.5
 10
-0.25
 20
0.0
 42
1.0
 10
0.25
 20
0.0
 42
1.0
  0
LINE
  5
2D
330
2B
100
AcDbEntity
  8
L
 62
     0
100
AcDbLine
 10
-0.5
 20
0.0
 30
0.0
 11
-1.0
 21
0.0
 31
0.0
  0
ENDBLK
  5
2F
330
2B
100
AcDbEntity
  8
0
100
AcDbBlockEnd
  0
BLOCK
  5
32
330
30
100
AcDbEntity
  8
0
 48
0.116666
100
AcDbBlockBegin
  2
_DOTSMALL
 70
     0
 10
0.0
 20
0.0
 30
0.0
  3
_DOTSMALL
  1

  0
LWPOLYLINE
  5
31
330
30
100
AcDbEntity
  8
0
  6
BYBLOCK
 62
     0
100
AcDbPolyline
 90
        2
 70
     1
 43
0.5
 10
-0.0625
 20
0.0
 42
1.0
 10
0.0625
 20
0.0
 42
1.0
  0
ENDBLK
  5
33
330
30
100
AcDbEntity
  8
0
 48
0.116666
100
AcDbBlockEnd
  0
BLOCK
  5
CD
330
C2
100
AcDbEntity
  8
0
100
AcDbBlockBegin
  2
*D3
 70
     1
 10
0.0
 20
0.0
 30
0.0
  3
*D3
  1

  0
LINE
  5
C3
330
C2
100
AcDbEntity
  8
0
 62
     0
100
AcDbLine
 10
4.104888980425474
 20
6.44760627881115
 30
0.0
 11
4.104888980425474
 21
7.633222883509631
 31
0.0
  0
LINE
  5
C4
330
C2
100
AcDbEntity
  8
0
 62
     0
100
AcDbLine
 10
9.324888980425502
 20
6.457606278811141
 30
0.0
 11
9.324888980425502
 21
7.633222883509631
 31
0.0
  0
LINE
  5
C5
330
C2
100
AcDbEntity
  8
0
 62
     0
100
AcDbLine
 10
4.284888980425474
 20
7.453222883509631
 30
0.0
 11
6.354888980425488
 21
7.453222883509631
 31
0.0
  0
LINE
  5
C6
330
C2
100
AcDbEntity
  8
0
 62
     0
100
AcDbLine
 10
9.144888980425502
 20
7.453222883509631
 30
0.0
 11
7.074888980425488
 21
7.453222883509631
 31
0.0
  0
SOLID
  5
C7
330
C2
100
AcDbEntity
  8
0
 62
     0
100
AcDbTrace
 10
4.284888980425474
 20
7.483222883509632
 30
0.0
 11
4.284888980425474
 21
7.423222883509631
 31
0.0
 12
4.104888980425474
 22
7.453222883509631
 32
0.0
 13
4.104888980425474
 23
7.453222883509631
 33
0.0
  0
SOLID
  5
C8
330
C2
100
AcDbEntity
  8
0
 62
     0
100
AcDbTrace
 10
9.144888980425502
 20
7.483222883509632
 30
0.0
 11
9.144888980425502
 21
7.423222883509631
 31
0.0
 12
9.324888980425502
 22
7.453222883509631
 32
0.0
 13
9.324888980425502
 23
7.453222883509631
 33
0.0
  0
MTEXT
  5
C9
330
C2
100
AcDbEntity
  8
0
 62
     0
100
AcDbMText
 10
6.714888980425488
 20
7.453222883509631
 30
0.0
 40
0.18
 41
0.0
 71
     5
 72
     1
  1
\A1;5.22
1001
ACAD
1000
MTEXTBEGIN
1070
    73
1070
     1
1070
    44
1040
1.0
1070
    74
1070
     0
1000
MTEXTEND
  0
POINT
  5
CA
330
C2
100
AcDbEntity
  8
DEFPOINTS
 62
     0
100
AcDbPoint
 10
4.104888980425474
 20
6.38510627881115
 30
0.0
  0
POINT
  5
CB
330
C2
100
AcDbEntity
  8
DEFPOINTS
 62
     0
100
AcDbPoint
 10
9.324888980425502
 20
6.395106278811141
 30
0.0
  0
POINT
  5
CC
330
C2
100
AcDbEntity
  8
DEFPOINTS
 62
     0
100
AcDbPoint
 10
9.324888980425502
 20
7.453222883509631
 30
0.0
  0
ENDBLK
  5
CE
330
C2
100
AcDbEntity
  8
0
100
AcDbBlockEnd
  0
BLOCK
  5
DB
330
D0
100
AcDbEntity
  8
0
100
AcDbBlockBegin
  2
*D4
 70
     1
 10
0.0
 20
0.0
 30
0.0
  3
*D4
  1

  0
LINE
  5
D1
330
D0
100
AcDbEntity
  8
0
 62
     0
100
AcDbLine
 10
4.582388980425438
 20
6.8151062788111
 30
0.0
 11
3.351857947191752
 21
6.8151062788111
 31
0.0
  0
LINE
  5
D2
330
D0
100
AcDbEntity
  8
0
 62
     0
100
AcDbLine
 10
4.267388980425611
 20
5.0651062788111
 30
0.0
 11
3.351857947191752
 21
5.0651062788111
 31
0.0
  0
LINE
  5
D3
330
D0
100
AcDbEntity
  8
0
 62
     0
100
AcDbLine
 10
3.531857947191753
 20
6.6351062788111
 30
0.0
 11
3.531857947191753
 21
6.1201062788111
 31
0.0
  0
LINE
  5
D4
330
D0
100
AcDbEntity
  8
0
 62
     0
100
AcDbLine
 10
3.531857947191753
 20
5.2451062788111
 30
0.0
 11
3.531857947191753
 21
5.7601062788111
 31
0.0
  0
SOLID
  5
D5
330
D0
100
AcDbEntity
  8
0
 62
     0
100
AcDbTrace
 10
3.501857947191753
 20
6.6351062788111
 30
0.0
 11
3.561857947191752
 21
6.6351062788111
 31
0.0
 12
3.531857947191753
 22
6.8151062788111
 32
0.0
 13
3.531857947191753
 23
6.8151062788111
 33
0.0
  0
SOLID
  5
D6
330
D0
100
AcDbEntity
  8
0
 62
     0
100
AcDbTrace
 10
3.501857947191753
 20
5.2451062788111
 30
0.0
 11
3.561857947191752
 21
5.2451062788111
 31
0.0
 12
3.531857947191753
 22
5.0651062788111
 32
0.0
 13
3.531857947191753
 23
5.0651062788111
 33
0.0
  0
MTEXT
  5
D7
330
D0
100
AcDbEntity
  8
0
 62
     0
100
AcDbMText
 10
3.531857947191752
 20
5.940106278811101
 30
0.0
 40
0.18
 41
0.0
 71
     5
 72
     1
  1
\A1;1.75
1001
ACAD
1000
MTEXTBEGIN
1070
    73
1070
     1
1070
    44
1040
1.0
1070
    74
1070
     0
1000
MTEXTEND
  0
POINT
  5
D8
330
D0
100
AcDbEntity
  8
DEFPOINTS
 62
     0
100
AcDbPoint
 10
4.644888980425438
 20
6.8151062788111
 30
0.0
  0
POINT
  5
D9
330
D0
100
AcDbEntity
  8
DEFPOINTS
 62
     0
100
AcDbPoint
 10
4.329888980425611
 20
5.0651062788111
 30
0.0
  0
POINT
  5
DA
330
D0
100
AcDbEntity
  8
DEFPOINTS
 62
     0
100
AcDbPoint
 10
3.531857947191753
 20
5.0651062788111
 30
0.0
  0
ENDBLK
  5
DC
330
D0
100
AcDbEntity
  8
0
100
AcDbBlockEnd
  0
ENDSEC
  0
SECTION
  2
ENTITIES
  0
LWPOLYLINE
  5
BD
330
1F
100
AcDbEntity
  8
L
 62
     5
 48
0.116666
100
AcDbPolyline
 90
        2
 70
     0
 43
0.028125
 10
4.746828992535146
 20
3.953611805473457
 10
8.215588690810935
 20
3.953611805473457
  0
TEXT
  5
BE
330
1F
100
AcDbEntity
  8
L
 62
     3
 48
0.116666
100
AcDbText
 10
4.840564835216245
 20
4.047347648154442
 30
0.0
 40
0.140625
  1
SERIES 7 HINGE BODY #1592
  7
REG
100
AcDbText
  0
TEXT
  5
BF
330
1F
100
AcDbEntity
  8
TX
 48
0.116666
100
AcDbText
 10
4.840564835216245
 20
3.766125962792472
 30
0.0
 40
0.09375
  1
SCALE : FULL SIZE
  7
REG
 11
4.840564835216245
 21
3.859875962792472
 31
0.0
100
AcDbText
 73
     3
  0
DIMENSION
  5
C1
330
1F
100
AcDbEntity
  8
0
100
AcDbDimension
  2
*D3
 10
9.324888980425502
 20
7.453222883509631
 30
0.0
 11
6.714888980425488
 21
7.453222883509631
 31
0.0
 70
    32
  3
STANDARD
100
AcDbAlignedDimension
 13
4.104888980425474
 23
6.38510627881115
 33
0.0
 14
9.324888980425502
 24
6.395106278811141
 34
0.0
100
AcDbRotatedDimension
  0
DIMENSION
  5
CF
330
1F
100
AcDbEntity
  8
0
100
AcDbDimension
  2
*D4
 10
3.531857947191753
 20
5.0651062788111
 30
0.0
 11
3.531857947191752
 21
5.940106278811101
 31
0.0
 70
    32
  3
STANDARD
100
AcDbAlignedDimension
 13
4.644888980425438
 23
6.8151062788111
 33
0.0
 14
4.329888980425611
 24
5.0651062788111
 34
0.0
 50
90.0
100
AcDbRotatedDimension
  0
LWPOLYLINE
  5
208
330
1F
100
AcDbEntity
  8
L
 62
     5
100
AcDbPolyline
 90
      292
 70
     1
 43
0.0
 10
4.949888980425559
 20
6.390106278811146
 42
-0.4142135623730951
 10
4.92988898042552
 20
6.37010627881105
 10
4.834888980425493
 20
6.37010627881105
 42
0.4142135623797547
 10
4.824888980425502
 20
6.360106278811059
 10
4.824888980425274
 20
6.270106278811141
 42
0.4142135623797547
 10
4.834888980425493
 20
6.26010627881115
 10
4.92988898042552
 20
6.260106278811093
 42
-0.4142135623730951
 10
4.949888980425502
 20
6.240106278811055
 10
4.949888980425502
 20
6.1901062788111
 42
-0.4142135623730951
 10
4.92988898042552
 20
6.170106278811118
 10
4.919888980425529
 20
6.170106278811118
 42
-0.4142135623730951
 10
4.899888980425547
 20
6.1901062788111
 42
0.4142135623730951
 10
4.879888980425565
 20
6.210106278811082
 10
4.828796206042742
 20
6.210106278811111
 42
0.2034522994238256
 10
4.814409410035867
 20
6.203999446220251
 10
4.633631250984711
 20
6.01679818245131
 42
0.4142135623707409
 10
4.634124879582149
 20
5.988518219035341
 10
4.735398435599915
 20
5.890719482804378
 42
0.1943803091375563
 10
4.749291603009059
 20
5.88510627881115
 10
4.994888980425574
 20
5.88510627881115
 10
4.994888980425574
 20
5.905106278811132
 10
5.074888980425502
 20
5.905106278811132
 42
-0.4142135623730951
 10
5.094888980425483
 20
5.88510627881115
 10
5.094888980425483
 20
5.825106278811091
 42
-0.4142135623730951
 10
5.074888980425502
 20
5.805106278811109
 10
4.904888980425656
 20
5.805106278811109
 10
4.894888980425438
 20
5.8151062788111
 10
4.884888980425447
 20
5.805106278811109
 10
4.716969504942316
 20
5.805106278811016
 42
-0.1943803091385809
 10
4.703076337533165
 20
5.81071948280433
 10
4.578552209945544
 20
5.930971035008297
 42
0.4142135623718974
 10
4.55027224652952
 20
5.930477406410687
 10
4.409888980425538
 20
5.785106278811127
 10
4.409888980425538
 20
5.185106278811105
 42
0.4142135623730951
 10
4.42988898042552
 20
5.165106278811123
 10
4.539888980425647
 20
5.165106278811123
 42
-0.4142135623730951
 10
4.559888980425629
 20
5.145106278811141
 10
4.559888980425629
 20
5.085106278811082
 42
-0.4142135623730951
 10
4.539888980425647
 20
5.0651062788111
 10
4.329888980425611
 20
5.0651062788111
 42
-0.4142135623730951
 10
4.309888980425629
 20
5.085106278811082
 10
4.309888980425572
 20
5.74510627881105
 42
0.4142135623730951
 10
4.269888980425438
 20
5.785106278811127
 10
4.144888980425438
 20
5.785106278811127
 42
-0.4142135623730951
 10
4.104888980425474
 20
5.825106278811091
 10
4.104888980425474
 20
6.38510627881115
 42
-0.4142135623730951
 10
4.124888980425456
 20
6.405106278811132
 10
4.163374261799734
 20
6.405106278811132
 10
4.215131621112609
 20
6.353348919498232
 42
-0.3654785947654582
 10
4.215785497055211
 20
6.345638696815541
 10
4.202992463795961
 20
6.327573860806711
 42
0.3182284865408727
 10
4.202992463796025
 20
6.320638696815564
 10
4.215785497055276
 20
6.302573860806734
 42
-0.3182284865408731
 10
4.215785497055211
 20
6.295638696815586
 10
4.202992463796032
 20
6.277573860806706
 42
0.3182284865330707
 10
4.202992463796025
 20
6.270638696815495
 10
4.215785497055275
 20
6.252573860806665
 42
-0.3182284865408728
 10
4.215785497055211
 20
6.245638696815518
 10
4.202992463795961
 20
6.227573860806688
 42
0.3182284865408727
 10
4.202992463796025
 20
6.220638696815541
 10
4.215785497055275
 20
6.202573860806711
 42
-0.3182284865408728
 10
4.215785497055211
 20
6.195638696815564
 10
4.202992463795961
 20
6.177573860806734
 42
0.3182284865408727
 10
4.202992463796025
 20
6.170638696815586
 10
4.215785497055204
 20
6.152573860806707
 42
-0.3182284865330705
 10
4.215785497055211
 20
6.145638696815495
 10
4.202992463795961
 20
6.127573860806665
 42
0.3182284865408727
 10
4.202992463796025
 20
6.120638696815518
 10
4.215785497055275
 20
6.102573860806688
 42
-0.3182284865408731
 10
4.215785497055211
 20
6.095638696815541
 10
4.202992463795961
 20
6.077573860806711
 42
0.3182284865408727
 10
4.202992463796025
 20
6.070638696815564
 10
4.215785497055275
 20
6.052573860806734
 42
-0.3182284865408728
 10
4.215785497055211
 20
6.045638696815586
 10
4.202992463796032
 20
6.027573860806706
 42
0.3182284865330707
 10
4.202992463796025
 20
6.020638696815495
 10
4.215785497055275
 20
6.002573860806665
 42
-0.3182284865408728
 10
4.215785497055211
 20
5.995638696815518
 10
4.202992463796045
 20
5.977573860806629
 42
0.1552778082840107
 10
4.201888980425454
 20
5.974106278811092
 10
4.201888980425511
 20
5.906106278811108
 42
0.4142135623730951
 10
4.232888980425631
 20
5.875106278811045
 10
4.34788898042564
 20
5.875106278810989
 42
0.4142135623741695
 10
4.378888980425589
 20
5.906106278811108
 10
4.378888980425705
 20
5.949106278811115
 42
0.1552778082875792
 10
4.377785497055246
 20
5.952573860806666
 10
4.364992463795768
 20
5.970638696815496
 42
-0.3182284865408728
 10
4.364992463795832
 20
5.977573860806643
 10
4.37778549705531
 20
5.995638696815473
 42
0.3182284865408728
 10
4.377785497055246
 20
6.00257386080662
 10
4.364992463795893
 20
6.020638696815538
 42
-0.3182284865330707
 10
4.364992463795832
 20
6.027573860806711
 10
4.37778549705531
 20
6.045638696815541
 42
0.3182284865408728
 10
4.377785497055246
 20
6.052573860806688
 10
4.364992463795768
 20
6.070638696815518
 42
-0.3182284865408728
 10
4.364992463795832
 20
6.077573860806666
 10
4.37778549705531
 20
6.095638696815496
 42
0.3182284865408728
 10
4.377785497055246
 20
6.102573860806643
 10
4.364992463795768
 20
6.120638696815473
 42
-0.3182284865408728
 10
4.364992463795832
 20
6.12757386080662
 10
4.377785497055185
 20
6.145638696815538
 42
0.3182284865330705
 10
4.377785497055246
 20
6.152573860806711
 10
4.364992463795768
 20
6.170638696815541
 42
-0.3182284865408728
 10
4.364992463795832
 20
6.177573860806688
 10
4.37778549705531
 20
6.195638696815518
 42
0.3182284865408728
 10
4.377785497055246
 20
6.202573860806666
 10
4.364992463795768
 20
6.220638696815496
 42
-0.3182284865408728
 10
4.364992463795832
 20
6.227573860806643
 10
4.37778549705531
 20
6.245638696815473
 42
0.3182284865408728
 10
4.377785497055246
 20
6.25257386080662
 10
4.364992463795767
 20
6.27063869681545
 42
-0.3182284865408728
 10
4.364992463795832
 20
6.277573860806597
 10
4.37778549705531
 20
6.295638696815541
 42
0.3182284865408731
 10
4.377785497055246
 20
6.302573860806688
 10
4.364992463795838
 20
6.320638696815567
 42
-0.3654785947648733
 10
4.365646339738422
 20
6.328348919498267
 10
4.378888980425589
 20
6.347048638907182
 10
4.378888980425589
 20
6.374106278811069
 10
4.409888980425538
 20
6.405106278811132
 10
4.555888980425496
 20
6.405106278811132
 42
-0.4142135623797547
 10
4.565888980425487
 20
6.395106278811141
 10
4.565888980425487
 20
6.345106278811073
 42
-0.4142135623730951
 10
4.545888980425505
 20
6.325106278811091
 10
4.514888980425556
 20
6.325106278811091
 42
0.4142135623730951
 10
4.474888980425593
 20
6.285106278811127
 10
4.474888980425652
 20
6.045873140238342
 42
0.6745085168412177
 10
4.509275776432222
 20
6.031979972829191
 10
4.722082378429144
 20
6.252347660171308
 42
0.1943803091403091
 10
4.724888980425593
 20
6.259294243876098
 10
4.724888980425593
 20
6.685106278811105
 42
0.4142135623730951
 10
4.684888980425629
 20
6.725106278811068
 10
4.614888980425465
 20
6.725106278811068
 42
-0.4142135623730951
 10
4.604888980425474
 20
6.735106278811059
 10
4.604888980425474
 20
6.775106278811136
 42
-0.4142135623730951
 10
4.644888980425438
 20
6.8151062788111
 10
8.784888980425538
 20
6.8151062788111
 42
-0.4142135623730951
 10
8.824888980425502
 20
6.775106278811136
 10
8.824888980425729
 20
6.735106278811059
 42
-0.4142135623797547
 10
8.814888980425511
 20
6.725106278811068
 10
8.744888980425574
 20
6.725106278811068
 42
0.4142135623730951
 10
8.704888980425611
 20
6.685106278811105
 10
8.70488898042551
 20
6.259294243876098
 42
0.1943803091403093
 10
8.707695582422164
 20
6.252347660171409
 10
8.920502184418767
 20
6.031979972829202
 42
0.6745085168440904
 10
8.954888980425611
 20
6.045873140238342
 10
8.954888980425611
 20
6.285106278811127
 42
0.4142135623730951
 10
8.914888980425647
 20
6.325106278811091
 10
8.883888980425471
 20
6.325106278811091
 42
-0.4142135623730951
 10
8.863888980425489
 20
6.345106278811073
 10
8.863888980425489
 20
6.405106278811132
 10
9.019888980425438
 20
6.405106278811132
 10
9.050888980425614
 20
6.374106278811069
 10
9.050888980425614
 20
6.347048638907182
 10
9.064131621112485
 20
6.328348919498198
 42
-0.3654785947648733
 10
9.064785497055144
 20
6.320638696815564
 10
9.051992463795894
 20
6.302573860806734
 42
0.3182284865408727
 10
9.051992463795958
 20
6.295638696815586
 10
9.064785497055208
 20
6.277573860806643
 42
-0.3182284865408731
 10
9.064785497055144
 20
6.270638696815495
 10
9.051992463795894
 20
6.252573860806665
 42
0.3182284865408727
 10
9.051992463795958
 20
6.245638696815518
 10
9.064785497055208
 20
6.227573860806688
 42
-0.3182284865408728
 10
9.064785497055144
 20
6.220638696815541
 10
9.051992463795894
 20
6.202573860806711
 42
0.3182284865408727
 10
9.051992463795958
 20
6.195638696815564
 10
9.064785497055208
 20
6.177573860806734
 42
-0.3182284865408731
 10
9.064785497055144
 20
6.170638696815586
 10
9.051992463795965
 20
6.152573860806706
 42
0.3182284865330707
 10
9.051992463795958
 20
6.145638696815495
 10
9.064785497055208
 20
6.127573860806665
 42
-0.3182284865408731
 10
9.064785497055144
 20
6.120638696815518
 10
9.051992463795894
 20
6.102573860806688
 42
0.3182284865408727
 10
9.051992463795958
 20
6.095638696815541
 10
9.064785497055208
 20
6.077573860806711
 42
-0.3182284865408731
 10
9.064785497055144
 20
6.070638696815564
 10
9.051992463795894
 20
6.052573860806734
 42
0.3182284865408727
 10
9.051992463795958
 20
6.045638696815586
 10
9.064785497055137
 20
6.027573860806707
 42
-0.3182284865330705
 10
9.064785497055144
 20
6.020638696815495
 10
9.051992463795894
 20
6.002573860806665
 42
0.3182284865408727
 10
9.051992463795958
 20
5.995638696815518
 10
9.064785497055208
 20
5.977573860806688
 42
-0.3182284865408731
 10
9.064785497055144
 20
5.970638696815541
 10
9.051992463795857
 20
5.952573860806738
 42
0.1552778082875795
 10
9.050888980425614
 20
5.949106278811115
 10
9.050888980425558
 20
5.906106278811108
 42
0.4142135623741692
 10
9.081888980425564
 20
5.875106278811045
 10
9.196888980425573
 20
5.875106278810989
 42
0.4142135623741695
 10
9.227888980425522
 20
5.906106278811108
 10
9.227888980425412
 20
5.974106278811092
 42
0.1552778082810799
 10
9.226785497055178
 20
5.977573860806643
 10
9.213992463795928
 20
5.995638696815473
 42
-0.3182284865408728
 10
9.213992463795992
 20
6.00257386080662
 10
9.226785497055118
 20
6.020638696815538
 42
0.3182284865330705
 10
9.226785497055178
 20
6.027573860806711
 10
9.213992463795928
 20
6.045638696815541
 42
-0.3182284865408728
 10
9.213992463795992
 20
6.052573860806688
 10
9.226785497055242
 20
6.070638696815518
 42
0.3182284865408728
 10
9.226785497055178
 20
6.077573860806666
 10
9.213992463795928
 20
6.095638696815496
 42
-0.3182284865408728
 10
9.213992463795992
 20
6.102573860806643
 10
9.226785497055242
 20
6.120638696815473
 42
0.3182284865408728
 10
9.226785497055178
 20
6.12757386080662
 10
9.213992463796053
 20
6.145638696815538
 42
-0.3182284865330707
 10
9.213992463795992
 20
6.152573860806711
 10
9.226785497055242
 20
6.170638696815541
 42
0.3182284865408728
 10
9.226785497055178
 20
6.177573860806688
 10
9.213992463795928
 20
6.195638696815518
 42
-0.3182284865408728
 10
9.213992463795992
 20
6.202573860806666
 10
9.226785497055242
 20
6.220638696815496
 42
0.3182284865408728
 10
9.226785497055178
 20
6.227573860806643
 10
9.213992463795928
 20
6.245638696815473
 42
-0.3182284865408728
 10
9.213992463795992
 20
6.25257386080662
 10
9.226785497055118
 20
6.270638696815538
 42
0.3182284865330705
 10
9.226785497055178
 20
6.277573860806711
 10
9.213992463795928
 20
6.295638696815541
 42
-0.3182284865408728
 10
9.213992463795992
 20
6.302573860806688
 10
9.226785497055242
 20
6.320638696815518
 42
0.3182284865408728
 10
9.226785497055178
 20
6.327573860806666
 10
9.213992463795966
 20
6.345638696815521
 42
-0.3654785947722502
 10
9.214646339738354
 20
6.353348919498245
 10
9.266403699051242
 20
6.405106278811132
 10
9.314888980425511
 20
6.405106278811132
 42
-0.4142135623730951
 10
9.324888980425502
 20
6.395106278811141
 10
9.324888980425502
 20
5.825106278811091
 42
-0.4142135623730951
 10
9.284888980425538
 20
5.785106278811127
 10
9.159888980425538
 20
5.785106278811184
 42
0.4142135623739274
 10
9.119888980425574
 20
5.74510627881105
 10
9.119888980425574
 20
5.085106278811082
 42
-0.4142135623730951
 10
9.099888980425593
 20
5.0651062788111
 10
8.889888980425556
 20
5.0651062788111
 42
-0.4142135623730951
 10
8.869888980425574
 20
5.085106278811082
 10
8.869888980425574
 20
5.145106278811141
 42
-0.4142135623730951
 10
8.889888980425556
 20
5.165106278811123
 10
8.999888980425456
 20
5.165106278811123
 42
0.4142135623730951
 10
9.019888980425438
 20
5.185106278811105
 10
9.019888980425438
 20
5.683106278811152
 42
0.4142135623730951
 10
8.999888980425456
 20
5.703106278811134
 10
8.94488898042562
 20
5.703106278811134
 42
-1.000000000000003
 10
8.94488898042562
 20
5.753106278811088
 10
9.003673973902895
 20
5.753106278811129
 42
0.6618855611940475
 10
9.018060769909769
 20
5.786999446220335
 10
8.879505714321339
 20
5.930477406410575
 42
0.4142135623718563
 10
8.851225750905658
 20
5.930971035008298
 10
8.726701623318088
 20
5.810719482804278
 42
-0.1943803091385808
 10
8.712808455908888
 20
5.805106278811109
 10
8.544888980425529
 20
5.805106278811109
 10
8.534888980425538
 20
5.8151062788111
 10
8.524888980425547
 20
5.805106278811109
 10
8.354888980425474
 20
5.805106278811109
 42
-0.4142135623730951
 10
8.334888980425493
 20
5.825106278811091
 10
8.334888980425493
 20
5.88510627881115
 42
-0.4142135623730951
 10
8.354888980425474
 20
5.905106278811132
 10
8.434888980425629
 20
5.905106278811132
 10
8.434888980425629
 20
5.88510627881115
 10
8.680486357841918
 20
5.88510627881123
 42
0.1943803091374326
 10
8.694379525251296
 20
5.890719482804371
 10
8.795653081268827
 20
5.988518219035341
 42
0.4142135623730951
 10
8.796146709866551
 20
6.016798182451367
 10
8.609471251132507
 20
6.210106278811082
 10
8.549888980425638
 20
6.210106278811082
 42
0.4142135623730951
 10
8.529888980425543
 20
6.1901062788111
 42
-0.4142135623714302
 10
8.509888980425447
 20
6.170106278811118
 10
8.499888980425456
 20
6.170106278811118
 42
-0.4142135623730951
 10
8.479888980425474
 20
6.1901062788111
 10
8.479888980425418
 20
6.240106278811055
 42
-0.4142135623730951
 10
8.499888980425456
 20
6.26010627881115
 10
8.594888980425483
 20
6.26010627881115
 42
0.4142135623664355
 10
8.604888980425474
 20
6.270106278811141
 10
8.604888980425247
 20
6.360106278811059
 42
0.4142135623664355
 10
8.594888980425483
 20
6.37010627881105
 10
8.499888980425456
 20
6.370106278811107
 42
-0.4142135623730951
 10
8.479888980425474
 20
6.390106278811146
 10
8.479888980425474
 20
6.4401062788111
 42
-0.4142135623730951
 10
8.499888980425456
 20
6.460106278811082
 10
8.509888980425447
 20
6.460106278811082
 42
-0.4142135623730951
 10
8.529888980425315
 20
6.4401062788111
 42
0.4142135623747599
 10
8.549888980425638
 20
6.420106278811118
 10
8.584888980425493
 20
6.420106278811118
 42
0.4142135623730951
 10
8.604888980425474
 20
6.4401062788111
 10
8.604888980425247
 20
6.715106278811077
 42
0.4142135623664355
 10
8.594888980425483
 20
6.725106278811068
 10
4.834888980425493
 20
6.725106278811068
 42
0.4142135623797547
 10
4.824888980425502
 20
6.715106278811077
 10
4.824888980425502
 20
6.4401062788111
 42
0.4142135623730951
 10
4.844888980425483
 20
6.420106278811118
 10
4.881888980425518
 20
6.420106278811118
 42
0.4142135623730951
 10
4.899888980425547
 20
6.438106278811147
 10
4.899888980425546
 20
6.4401062788111
 42
-0.4142135623730951
 10
4.919888980425529
 20
6.460106278811082
 10
4.92988898042552
 20
6.460106278811081
 42
-0.4142135623730951
 10
4.949888980425502
 20
6.4401062788111
  0
ENDSEC
  0
SECTION
  2
OBJECTS
  0
DICTIONARY
  5
C
330
0
100
AcDbDictionary
  3
ACAD_GROUP
350
D
  3
ACAD_LAYOUT
350
1A
  3
ACAD_MLINESTYLE
350
17
  3
ACAD_PLOTSETTINGS
350
19
  3
ACAD_PLOTSTYLENAME
350
E
  3
ACDBHEADERROUNDTRIPXREC
350
32E
  0
DICTIONARY
  5
350
330
1F
100
AcDbDictionary
280
     1
  3
ACAD_LAYOUTSELFREF
360
351
  0
DICTIONARY
  5
34E
330
1B
100
AcDbDictionary
280
     1
  3
ACAD_LAYOUTSELFREF
360
34F
  0
DICTIONARY
  5
D
102
{ACAD_REACTORS
330
C
102
}
330
C
100
AcDbDictionary
  0
DICTIONARY
  5
1A
102
{ACAD_REACTORS
330
C
102
}
330
C
100
AcDbDictionary
  0
DICTIONARY
  5
17
102
{ACAD_REACTORS
330
C
102
}
330
C
100
AcDbDictionary
  3
STANDARD
350
18
  0
DICTIONARY
  5
19
102
{ACAD_REACTORS
330
C
102
}
330
C
100
AcDbDictionary
  0
ACDBDICTIONARYWDFLT
  5
E
102
{ACAD_REACTORS
330
C
102
}
330
C
100
AcDbDictionary
281
     1
  3
Normal
350
F
100
AcDbDictionaryWithDefault
340
F
  0
DICTIONARY
  5
32E
102
{ACAD_REACTORS
330
C
102
}
330
C
100
AcDbDictionary
  3
CEPSNTYPE
350
338
  3
FINGERPRINTGUID
350
339
  3
HYPERLINKBASE
350
331
  3
INSUNITS
350
337
  3
LAYOUTDICT
350
333
  3
LWETCUNION
350
336
  3
PLOTSETDICT
350
334
  3
PLOTSTYLNAMDICT
350
335
  3
PSVPSCALE
350
33B
  3
PUCSBASE
350
33E
  3
PUCSORGBACK
350
344
  3
PUCSORGBOTTOM
350
340
  3
PUCSORGFRONT
350
343
  3
PUCSORGLEFT
350
341
  3
PUCSORGRIGHT
350
342
  3
PUCSORGTOP
350
33F
  3
PUCSORTHOREF
350
33C
  3
PUCSORTHOVIEW
350
33D
  3
STYLESHEET
350
332
  3
TSTACKALIGN
350
32F
  3
TSTACKSIZE
350
330
  3
UCSBASE
350
347
  3
UCSORGBACK
350
34D
  3
UCSORGBOTTOM
350
349
  3
UCSORGFRONT
350
34C
  3
UCSORGLEFT
350
34A
  3
UCSORGRIGHT
350
34B
  3
UCSORGTOP
350
348
  3
UCSORTHOREF
350
345
  3
UCSORTHOVIEW
350
346
  3
VERSIONGUID
350
33A
  0
XRECORD
  5
351
102
{ACAD_REACTORS
330
350
102
}
330
350
100
AcDbXrecord
340
1F
  0
XRECORD
  5
34F
102
{ACAD_REACTORS
330
34E
102
}
330
34E
100
AcDbXrecord
340
1B
  0
MLINESTYLE
  5
18
102
{ACAD_REACTORS
330
17
102
}
330
17
100
AcDbMlineStyle
  2
STANDARD
 70
     0
  3

 62
   256
 51
90.0
 52
90.0
 71
     2
 49
0.5
 62
   256
  6
BYLAYER
 49
-0.5
 62
   256
  6
BYLAYER
  0
ACDBPLACEHOLDER
  5
F
102
{ACAD_REACTORS
330
E
102
}
330
E
100
AcDbPlaceHolder
280
     0
  0
XRECORD
  5
338
102
{ACAD_REACTORS
330
32E
102
}
330
32E
100
AcDbXrecord
 90
        0
  0
XRECORD
  5
339
102
{ACAD_REACTORS
330
32E
102
}
330
32E
100
AcDbXrecord
  1
{DC175E3D-AE85-11D5-9A93-0040C77E826B}
  0
XRECORD
  5
331
102
{ACAD_REACTORS
330
32E
102
}
330
32E
100
AcDbXrecord
  1

  0
XRECORD
  5
337
102
{ACAD_REACTORS
330
32E
102
}
330
32E
100
AcDbXrecord
 90
        1
  0
XRECORD
  5
333
102
{ACAD_REACTORS
330
32E
102
}
330
32E
100
AcDbXrecord
340
1A
  0
XRECORD
  5
336
102
{ACAD_REACTORS
330
32E
102
}
330
32E
100
AcDbXrecord
 90
    10781
  0
XRECORD
  5
334
102
{ACAD_REACTORS
330
32E
102
}
330
32E
100
AcDbXrecord
340
19
  0
XRECORD
  5
335
102
{ACAD_REACTORS
330
32E
102
}
330
32E
100
AcDbXrecord
340
E
  0
XRECORD
  5
33B
102
{ACAD_REACTORS
330
32E
102
}
330
32E
100
AcDbXrecord
 40
0.0
  0
XRECORD
  5
33E
102
{ACAD_REACTORS
330
32E
102
}
330
32E
100
AcDbXrecord
340
0
  0
XRECORD
  5
344
102
{ACAD_REACTORS
330
32E
102
}
330
32E
100
AcDbXrecord
 10
0.0
 20
0.0
 30
0.0
  0
XRECORD
  5
340
102
{ACAD_REACTORS
330
32E
102
}
330
32E
100
AcDbXrecord
 10
0.0
 20
0.0
 30
0.0
  0
XRECORD
  5
343
102
{ACAD_REACTORS
330
32E
102
}
330
32E
100
AcDbXrecord
 10
0.0
 20
0.0
 30
0.0
  0
XRECORD
  5
341
102
{ACAD_REACTORS
330
32E
102
}
330
32E
100
AcDbXrecord
 10
0.0
 20
0.0
 30
0.0
  0
XRECORD
  5
342
102
{ACAD_REACTORS
330
32E
102
}
330
32E
100
AcDbXrecord
 10
0.0
 20
0.0
 30
0.0
  0
XRECORD
  5
33F
102
{ACAD_REACTORS
330
32E
102
}
330
32E
100
AcDbXrecord
 10
0.0
 20
0.0
 30
0.0
  0
XRECORD
  5
33C
102
{ACAD_REACTORS
330
32E
102
}
330
32E
100
AcDbXrecord
340
0
  0
XRECORD
  5
33D
102
{ACAD_REACTORS
330
32E
102
}
330
32E
100
AcDbXrecord
 70
     0
  0
XRECORD
  5
332
102
{ACAD_REACTORS
330
32E
102
}
330
32E
100
AcDbXrecord
  1

  0
XRECORD
  5
32F
102
{ACAD_REACTORS
330
32E
102
}
330
32E
100
AcDbXrecord
 90
        1
  0
XRECORD
  5
330
102
{ACAD_REACTORS
330
32E
102
}
330
32E
100
AcDbXrecord
 90
       70
  0
XRECORD
  5
347
102
{ACAD_REACTORS
330
32E
102
}
330
32E
100
AcDbXrecord
340
0
  0
XRECORD
  5
34D
102
{ACAD_REACTORS
330
32E
102
}
330
32E
100
AcDbXrecord
 10
0.0
 20
0.0
 30
0.0
  0
XRECORD
  5
349
102
{ACAD_REACTORS
330
32E
102
}
330
32E
100
AcDbXrecord
 10
0.0
 20
0.0
 30
0.0
  0
XRECORD
  5
34C
102
{ACAD_REACTORS
330
32E
102
}
330
32E
100
AcDbXrecord
 10
0.0
 20
0.0
 30
0.0
  0
XRECORD
  5
34A
102
{ACAD_REACTORS
330
32E
102
}
330
32E
100
AcDbXrecord
 10
0.0
 20
0.0
 30
0.0
  0
XRECORD
  5
34B
102
{ACAD_REACTORS
330
32E
102
}
330
32E
100
AcDbXrecord
 10
0.0
 20
0.0
 30
0.0
  0
XRECORD
  5
348
102
{ACAD_REACTORS
330
32E
102
}
330
32E
100
AcDbXrecord
 10
0.0
 20
0.0
 30
0.0
  0
XRECORD
  5
345
102
{ACAD_REACTORS
330
32E
102
}
330
32E
100
AcDbXrecord
340
0
  0
XRECORD
  5
346
102
{ACAD_REACTORS
330
32E
102
}
330
32E
100
AcDbXrecord
 70
     0
  0
XRECORD
  5
33A
102
{ACAD_REACTORS
330
32E
102
}
330
32E
100
AcDbXrecord
  1
{22352FDF-D459-433B-844E-F977F560B442}
  0
ENDSEC
  0
EOF
